Posted : 1 Week ago

  1. The.Wrong.Babysitter.2017.720p.WEB.X264-SECRECY.mkv
  2. General
  3. Unique ID                                : 284591334433496645456212440746663177264 (0xD61A4C1B302F4FFD4B84FE29B3ED6C30)
  4. Complete name                            : D:\The.Wrong.Babysitter.2017.720p.WEB.X264-SECRECY.mkv
  5. Format                                   : Matroska
  6. Format version                           : Version 4
  7. File size                                : 2.63 GiB
  8. Duration                                 : 1 h 29 min
  9. Overall bit rate mode                    : Variable
  10. Overall bit rate                         : 4 211 kb/s
  11. Encoded date                             : UTC 2019-12-02 22:43:52
  12. Writing application                      : mkvmerge v40.0.0 ('Old Town Road + Pony') 64-bit
  13. Writing library                          : libebml v1.3.9 + libmatroska v1.5.2
  14.  
  15. Video
  16. ID                                       : 1
  17. Format                                   : AVC
  18. Format/Info                              : Advanced Video Codec
  19. Format profile                           : [email protected]
  20. Format settings                          : CABAC / 3 Ref Frames
  21. Format settings, CABAC                   : Yes
  22. Format settings, Reference frames        : 3 frames
  23. Codec ID                                 : V_MPEG4/ISO/AVC
  24. Duration                                 : 1 h 29 min
  25. Bit rate mode                            : Variable
  26. Bit rate                                 : 3 650 kb/s
  27. Maximum bit rate                         : 5 475 kb/s
  28. Width                                    : 1 280 pixels
  29. Height                                   : 720 pixels
  30. Display aspect ratio                     : 16:9
  31. Frame rate mode                          : Constant
  32. Frame rate                               : 23.976 (24000/1001) FPS
  33. Color space                              : YUV
  34. Chroma subsampling                       : 4:2:0
  35. Bit depth                                : 8 bits
  36. Scan type                                : Progressive
  37. Bits/(Pixel*Frame)                       : 0.165
  38. Stream size                              : 2.23 GiB (85%)
  39. Writing library                          : x264 core 148 r2715 7e75228
  40. Encoding settings                        : cabac=1 / ref=3 / deblock=1:0:0 / analyse=0x1:0x111 / me=umh / subme=10 / psy=1 / psy_rd=1.00:0.00 / mixed_ref=1 / me_range=24 / chroma_me=1 / trellis=2 / 8x8dct=0 / cqm=0 / deadzone=21,11 / fast_pskip=1 / chroma_qp_offset=-2 / threads=8 / lookahead_threads=1 / sliced_threads=0 / nr=0 / decimate=1 / interlaced=0 / bluray_compat=0 / stitchable=1 / constrained_intra=0 / bframes=2 / b_pyramid=0 / b_adapt=2 / b_bias=0 / direct=3 / weightb=1 / open_gop=0 / weightp=2 / keyint=250 / keyint_min=23 / scenecut=0 / intra_refresh=0 / rc_lookahead=48 / rc=2pass / mbtree=1 / bitrate=3650 / ratetol=1.0 / qcomp=0.50 / qpmin=6 / qpmax=51 / qpstep=4 / cplxblur=20.0 / qblur=0.5 / vbv_maxrate=5475 / vbv_bufsize=7300 / nal_hrd=vbr / filler=0 / ip_ratio=1.40 / aq=1:1.00
  41. Default                                  : Yes
  42. Forced                                   : No
  43.  
  44. Audio
  45. ID                                       : 2
  46. Format                                   : E-AC-3
  47. Format/Info                              : Enhanced AC-3
  48. Commercial name                          : Dolby Digital Plus
  49. Codec ID                                 : A_EAC3
  50. Duration                                 : 1 h 29 min
  51. Bit rate mode                            : Constant
  52. Bit rate                                 : 640 kb/s
  53. Channel(s)                               : 6 channels
  54. Channel layout                           : L R C LFE Ls Rs
  55. Sampling rate                            : 48.0 kHz
  56. Frame rate                               : 31.250 FPS (1536 SPF)
  57. Compression mode                         : Lossy
  58. Stream size                              : 409 MiB (15%)
  59. Title                                    : English
  60. Language                                 : English
  61. Service kind                             : Complete Main
  62. Default                                  : Yes
  63. Forced                                   : No
  64.  
  65. Text
  66. ID                                       : 3
  67. Format                                   : UTF-8
  68. Codec ID                                 : S_TEXT/UTF8
  69. Codec ID/Info                            : UTF-8 Plain Text
  70. Duration                                 : 1 h 24 min
  71. Bit rate                                 : 62 b/s
  72. Count of elements                        : 1488
  73. Stream size                              : 38.9 KiB (0%)
  74. Title                                    : English
  75. Language                                 : English
  76. Default                                  : No
  77. Forced                                   : No
  78.  
  79.  
  80.